<?xml version="1.0" standalone="no"?>
<!DOCTYPE svg PUBLIC "-//W3C//DTD SVG 1.1//EN" "http://www.w3.org/Graphics/SVG/1.1/DTD/svg11.dtd" >
<svg xmlns="http://www.w3.org/2000/svg">
<metadata>Generated by IcoMoon</metadata>
<defs>
<font id="icomoon" horiz-adv-x="1024">
<font-face units-per-em="1024" ascent="960" descent="-64" />
<missing-glyph horiz-adv-x="1024" />
<glyph unicode="&#x20;" horiz-adv-x="512" d="" />
<glyph unicode="&#xe311;" glyph-name="zoom-in" d="M512 512.667h-86v-86h-42v86h-86v42h86v86h42v-86h86v-42zM406 340.667q80 0 136 56t56 136-56 136-136 56-136-56-56-136 56-136 136-56zM662 340.667l212-212-64-64-212 212v34l-12 12q-76-66-180-66-116 0-197 80t-81 196 81 197 197 81 196-81 80-197q0-104-66-180l12-12h34z" />
<glyph unicode="&#xe312;" glyph-name="zoom-out" d="M298 554.667h214v-42h-214v42zM406 340.667q80 0 136 56t56 136-56 136-136 56-136-56-56-136 56-136 136-56zM662 340.667l212-212-64-64-212 212v34l-12 12q-76-66-180-66-116 0-197 80t-81 196 81 197 197 81 196-81 80-197q0-104-66-180l12-12h34z" />
<glyph unicode="&#xe609;" glyph-name="dot" d="M877.714 438.857q0-119.429-58.857-220.286t-159.714-159.714-220.286-58.857-220.286 58.857-159.714 159.714-58.857 220.286 58.857 220.286 159.714 159.714 220.286 58.857 220.286-58.857 159.714-159.714 58.857-220.286z" />
<glyph unicode="&#xe60b;" glyph-name="cross-circle" d="M512 960c-282.752 0-512-229.248-512-512s229.248-512 512-512 512 229.248 512 512-229.248 512-512 512zM765.248 285.248l-90.496-90.496-162.752 162.752-162.752-162.752-90.496 90.496 162.752 162.752-162.752 162.752 90.496 90.496 162.752-162.752 162.752 162.752 90.496-90.496-162.752-162.752 162.752-162.752z" />
<glyph unicode="&#xe60d;" glyph-name="cross2" d="M1014.662 137.34c-0.004 0.004-0.008 0.008-0.012 0.010l-310.644 310.65 310.644 310.65c0.004 0.004 0.008 0.006 0.012 0.010 3.344 3.346 5.762 7.254 7.312 11.416 4.246 11.376 1.824 24.682-7.324 33.83l-146.746 146.746c-9.148 9.146-22.45 11.566-33.828 7.32-4.16-1.55-8.070-3.968-11.418-7.31 0-0.004-0.004-0.006-0.008-0.010l-310.648-310.652-310.648 310.65c-0.004 0.004-0.006 0.006-0.010 0.010-3.346 3.342-7.254 5.76-11.414 7.31-11.38 4.248-24.682 1.826-33.83-7.32l-146.748-146.748c-9.148-9.148-11.568-22.452-7.322-33.828 1.552-4.16 3.97-8.072 7.312-11.416 0.004-0.002 0.006-0.006 0.010-0.010l310.65-310.648-310.65-310.652c-0.002-0.004-0.006-0.006-0.008-0.010-3.342-3.346-5.76-7.254-7.314-11.414-4.248-11.376-1.826-24.682 7.322-33.83l146.748-146.746c9.15-9.148 22.452-11.568 33.83-7.322 4.16 1.552 8.070 3.97 11.416 7.312 0.002 0.004 0.006 0.006 0.010 0.010l310.648 310.65 310.648-310.65c0.004-0.002 0.008-0.006 0.012-0.008 3.348-3.344 7.254-5.762 11.414-7.314 11.378-4.246 24.684-1.826 33.828 7.322l146.746 146.748c9.148 9.148 11.57 22.454 7.324 33.83-1.552 4.16-3.97 8.068-7.314 11.414z" />
<glyph unicode="&#xe60f;" glyph-name="clock" d="M512 896q95.667 0 182.5-37.167t149.667-100 100-149.667 37.167-182.5-37.167-182.5-100-149.667-149.667-100-182.5-37.167-182.5 37.167-149.667 100-100 149.667-37.167 182.5 37.167 182.5 100 149.667 149.667 100 182.5 37.167zM512 810.667q-78 0-149.167-30.5t-122.5-81.833-81.833-122.5-30.5-149.167 30.5-149.167 81.833-122.5 122.5-81.833 149.167-30.5 149.167 30.5 122.5 81.833 81.833 122.5 30.5 149.167-30.5 149.167-81.833 122.5-122.5 81.833-149.167 30.5zM512 725.334q17.667 0 30.167-12.5t12.5-30.167v-238.333l115.667-115.333q12.333-12.333 12.333-30.333t-12.333-30.333-30.333-12.333-30.333 12.333l-128 128q-12.333 12.333-12.333 30.333v256q0 17.667 12.5 30.167t30.167 12.5z" />
<glyph unicode="&#xe610;" glyph-name="thumbs-up" horiz-adv-x="951" d="M146.286 182.857q0 14.857-10.857 25.714t-25.714 10.857q-15.429 0-26-10.857t-10.571-25.714q0-15.429 10.571-26t26-10.571q14.857 0 25.714 10.571t10.857 26zM237.714 475.428v-365.714q0-14.857-10.857-25.714t-25.714-10.857h-164.571q-14.857 0-25.714 10.857t-10.857 25.714v365.714q0 14.857 10.857 25.714t25.714 10.857h164.571q14.857 0 25.714-10.857t10.857-25.714zM914.286 475.428q0-49.143-31.429-85.143 8.571-25.143 8.571-43.429 1.714-43.429-24.571-78.286 9.714-32 0-66.857-8.571-32.571-30.857-53.714 5.143-64-28-103.429-36.571-43.429-112.571-44.571h-73.714q-37.714 0-82.286 8.857t-69.429 16.571-68.857 22.571q-70.286 24.571-90.286 25.143-14.857 0.571-25.714 11.143t-10.857 25.429v366.286q0 14.286 10.286 24.857t24.571 11.714q13.714 1.143 43.429 33.714t57.714 69.143q38.857 49.714 57.714 68.571 10.286 10.286 17.714 27.429t10 27.714 7.714 34.571q4 22.286 7.143 34.857t11.143 29.714 19.429 28.571q10.857 10.857 25.714 10.857 26.286 0 47.143-6t34.286-14.857 22.857-23.143 13.714-25.714 6.857-28.571 2.857-25.714 0.286-22.286q0-21.714-5.429-43.429t-10.857-34.286-15.714-32q-1.714-3.429-5.714-10.286t-6.286-12.571-4.571-13.714h158.286q44.571 0 77.143-32.571t32.571-77.143z" />
<glyph unicode="&#xe611;" glyph-name="euro" horiz-adv-x="585" d="M557.714 204l20-90.857q1.714-6.857-1.714-12.857t-9.714-8.286l-2.857-0.571q-2.286-1.143-6-2t-9.143-2.571-12.286-3.143-14.571-2.857-17.143-2.857-19.143-2.571-20.857-1.714-22-0.571q-133.714 0-233.714 74.571t-136 200.857h-54.286q-7.429 0-12.857 5.429t-5.429 12.857v64.571q0 7.429 5.429 12.857t12.857 5.429h37.714q-1.143 32.571 0.571 60h-38.286q-8 0-13.143 5.143t-5.143 13.143v65.143q0 8 5.143 13.143t13.143 5.143h56q38.286 120 139.143 193.143t228.857 73.143q58.286 0 110.857-13.143 6.286-1.714 11.429-8.571 3.429-6.286 1.714-13.714l-24.571-90.857q-1.714-7.429-8-11.143t-13.714-1.429l-2.286 0.571q-2.286 0.571-6.571 1.429l-10 2t-12.857 2-14.857 1.714-16.571 1.429-16.857 0.571q-72 0-129.143-36.571t-85.714-100.571h267.429q9.143 0 14.286-6.857 5.714-6.857 4-14.857l-13.714-65.143q-2.857-14.857-18.286-14.857h-278.857q-1.714-21.143 0-60h262.286q8.571 0 14.286-6.857 5.143-6.857 3.429-15.429l-13.714-64q-1.143-6.286-6.286-10.571t-11.429-4.286h-221.143q27.429-66.857 85.429-106t130.571-39.143q10.286 0 20.571 0.857t19.143 2 16.857 2.571 14 2.857 10.571 2.571l6.857 1.714 2.857 1.143q7.429 2.857 14.857-1.143 6.857-4 8.571-12z" />
<glyph unicode="&#xe612;" glyph-name="truck" d="M863.008 544c-17.696 0-32 0-32 0h-63.328l-0.416-40.192c19.136-10.912 31.744-31.648 31.744-55.808l1.344-222.016h-607.36v222.016c0 23.616 12.928 44.032 32 55.136v40.864h-64c0 0-14.336 0-32 0-17.696 0-32 14.336-32 32v32c0 17.696 14.304 32 32 32 17.664 0 32 0 32 0v-64h64v96c0 35.328 28.672 64 64 64h416c35.328 0 64-28.672 64-64l-0.992-96h63.008v64c0 0 14.304 0 32 0 17.664 0 32-14.304 32-32v-32c0-17.664-14.336-32-32-32zM384.992 256h224v32h-224v-32zM384.992 320h224v32h-224v-32zM384.992 384h224v32h-224v-32zM256.992 288c0-17.664 14.304-32 32-32h32c17.664 0 32 14.336 32 32 0 17.696-14.336 32-32 32h-32c-17.664 0-32-14.304-32-32zM704.992 640c0 17.696-14.304 32-32 32h-352c-17.696 0-32-14.304-32-32v-160h416v160zM704.992 320h-32c-17.696 0-32-14.304-32-32 0-17.664 14.304-32 32-32h32c17.664 0 32 14.336 32 32 0 17.696-14.336 32-32 32zM736.992 768h-480c-35.328 0-64-28.672-64-64v160c0 17.696 14.304 32 32 32h544c17.664 0 32-14.304 32-32v-160c0 35.328-28.64 64-64 64zM800.992 161.984c0-17.664-14.336-32-32-32h-544c-17.696 0-32 14.336-32 32 0 17.696 0 32 0 32h608c0 0 0-14.304 0-32zM352.992 32c0-17.664-14.336-32-32-32h-32c-17.696 0-32 14.336-32 32v64h96v-64zM736.992 32c0-17.664-14.336-32-32-32h-32c-17.696 0-32 14.336-32 32v64h96v-64z" />
<glyph unicode="&#xe613;" glyph-name="trash" horiz-adv-x="805" d="M292.571 164.571v402.286q0 8-5.143 13.143t-13.143 5.143h-36.571q-8 0-13.143-5.143t-5.143-13.143v-402.286q0-8 5.143-13.143t13.143-5.143h36.571q8 0 13.143 5.143t5.143 13.143zM438.857 164.571v402.286q0 8-5.143 13.143t-13.143 5.143h-36.571q-8 0-13.143-5.143t-5.143-13.143v-402.286q0-8 5.143-13.143t13.143-5.143h36.571q8 0 13.143 5.143t5.143 13.143zM585.143 164.571v402.286q0 8-5.143 13.143t-13.143 5.143h-36.571q-8 0-13.143-5.143t-5.143-13.143v-402.286q0-8 5.143-13.143t13.143-5.143h36.571q8 0 13.143 5.143t5.143 13.143zM274.286 731.428h256l-27.429 66.857q-4 5.143-9.714 6.286h-181.143q-5.714-1.143-9.714-6.286zM804.571 713.143v-36.571q0-8-5.143-13.143t-13.143-5.143h-54.857v-541.714q0-47.429-26.857-82t-64.571-34.571h-475.429q-37.714 0-64.571 33.429t-26.857 80.857v544h-54.857q-8 0-13.143 5.143t-5.143 13.143v36.571q0 8 5.143 13.143t13.143 5.143h176.571l40 95.429q8.571 21.143 30.857 36t45.143 14.857h182.857q22.857 0 45.143-14.857t30.857-36l40-95.429h176.571q8 0 13.143-5.143t5.143-13.143z" />
<glyph unicode="&#xe61a;" glyph-name="cart" horiz-adv-x="1069" d="M0 972.8v-104.896h153.927v-623.105h915.103v104.896h-810.22v623.105h-258.81zM449.799 75.374c0-69.933-56.66-126.574-126.567-126.574s-126.58 56.647-126.58 126.574c0 69.893 56.674 126.567 126.58 126.567s126.567-56.674 126.567-126.567v0zM1036.816 75.374c0-69.933-56.674-126.574-126.574-126.574-69.913 0-126.574 56.647-126.574 126.574 0 69.893 56.667 126.567 126.574 126.567 69.9 0 126.574-56.674 126.574-126.567v0zM603.468 386.896v0c134.071 0 242.153 108.175 242.153 242.246 0 133.885-108.082 242.040-242.153 242.040-134.064 0-242.14-108.155-242.14-242.040 0.007-134.011 108.075-242.246 242.14-242.246zM1071.329 243.374v625.145h-104.896v-520.262z" />
<glyph unicode="&#xe900;" glyph-name="subscription-cross" d="M512-51.2c-282.309 0-512 229.671-512 512 0 282.309 229.691 512 512 512 282.329 0 512-229.691 512-512 0-282.329-229.671-512-512-512zM512 933.415c-260.588 0-472.615-212.027-472.615-472.615s212.027-472.615 472.615-472.615 472.615 212.027 472.615 472.615-212.027 472.615-472.615 472.615zM334.769 263.877c-5.041 0-10.082 1.93-13.922 5.77-7.7 7.7-7.7 20.145 0 27.845l354.462 354.462c7.7 7.7 20.145 7.7 27.845 0s7.7-20.145 0-27.845l-354.462-354.462c-3.84-3.84-8.881-5.77-13.922-5.77zM689.231 263.877c-5.041 0-10.082 1.93-13.922 5.77l-354.462 354.462c-7.7 7.7-7.7 20.145 0 27.845s20.145 7.7 27.845 0l354.462-354.462c7.7-7.7 7.7-20.145 0-27.845-3.84-3.84-8.881-5.77-13.922-5.77z" />
<glyph unicode="&#xe901;" glyph-name="subscription-tick" d="M512-51.2c-282.309 0-512 229.671-512 512 0 282.309 229.691 512 512 512 282.329 0 512-229.691 512-512 0-282.329-229.671-512-512-512zM512 933.415c-260.588 0-472.615-212.027-472.615-472.615s212.027-472.615 472.615-472.615 472.615 212.027 472.615 472.615-212.027 472.615-472.615 472.615zM452.923 283.569c-4.332 0-8.665 1.418-12.288 4.313l-196.923 157.538c-8.507 6.794-9.866 19.18-3.072 27.668 6.794 8.507 19.22 9.866 27.668 3.072l182.331-145.861 302.671 340.5c7.207 8.153 19.653 8.862 27.786 1.634s8.862-19.673 1.634-27.806l-315.077-354.462c-3.899-4.352-9.295-6.597-14.73-6.597z" />
<glyph unicode="&#xe902;" glyph-name="instagram" d="M517.571 547.644c55.032-3.077 97.15-50.183 94.073-105.215s-50.183-97.15-105.215-94.073c-55.032 3.077-97.15 50.183-94.073 105.215s50.183 97.15 105.215 94.073zM745.2 625.8l0.4-1.1c-10.3 25.964-30.406 46.168-55.63 56.361l-0.67 0.239-0.6 0.3c-16.43 6.374-35.438 10.169-55.302 10.399l-0.098 0.001h-0.1c-31.8 0-41.3 1.8-121.2 1.8v-1.5c-80 0-89.4 0-121.1-1.7-20.46-0.308-39.903-4.28-57.826-11.288l1.126 0.388 1.2 0.4c-25.759-9.936-45.931-29.491-56.453-54.149l-0.247-0.651-0.3-0.7c-6.364-16.399-10.158-35.371-10.399-55.198l-0.001-0.102v-0.2c0-31.7-1.8-41.2-1.8-121.1s0-89.4 1.8-121.1c0.273-20.448 4.212-39.896 11.186-57.828l-0.386 1.128-0.3 1.1c10.268-25.954 30.34-46.156 55.532-56.361l0.668-0.239 0.7-0.3c16.399-6.364 35.371-10.158 55.198-10.399l0.102-0.001h0.2c31.7 0 41.2-1.8 121.1-1.8s89.4 0 121.2 1.8c20.414 0.283 39.827 4.221 57.727 11.186l-1.127-0.386-1.1-0.3c25.954 10.268 46.156 30.34 56.361 55.532l0.239 0.668 0.3 0.7c6.362 16.399 10.156 35.37 10.399 55.197l0.001 0.103v0.1c0 31.8 1.7 41.3 1.7 121.2s0 89.4-1.7 121.1c-0.28 20.448-4.218 39.896-11.186 57.83l0.386-1.13zM512 292.3c-85.052 0-154 68.948-154 154s68.948 154 154 154v0c0.003 0 0.006 0 0.009 0 84.454 0 153.030-67.982 153.99-152.209l0.001-0.091v-1.8c0-85.052-68.948-154-154-154v0zM674 573c-0.030 0-0.065 0-0.1 0-19.33 0-35 15.67-35 35s15.67 35 35 35c19.33 0 35-15.67 35-35 0-0.035 0-0.070 0-0.105v0.005c-0.057-19.252-15.648-34.843-34.895-34.9h-0.005zM512 960c-282.77 0-512-229.23-512-512s229.23-512 512-512v0c282.77 0 512 229.23 512 512s-229.23 512-512 512v0zM810.1 324.4c-0.446-26.998-5.691-52.643-14.914-76.297l0.514 1.497 0.5 1.5c-15.863-39.817-46.648-70.83-85.271-86.628l-1.029-0.372-1-0.3c-21.411-8.393-46.186-13.484-72.084-13.997l-0.216-0.003h-0.3c-32 0-42.2-1.7-123.6-1.7s-91.4 0-123.6 1.7c-26.781 0.567-52.167 5.838-75.593 15.015l1.493-0.515 1.5-0.5c-40.344 15.575-71.845 46.425-87.925 85.277l-0.375 1.023-0.4 1c-8.389 21.411-13.48 46.185-13.997 72.082l-0.003 0.218v0.3c0 32.1-1.7 42.2-1.7 123.6s0 91.4 1.7 123.6c0.562 26.78 5.834 52.166 15.015 75.591l-0.515-1.491-0.5-1.5c15.728 40.463 46.841 71.999 85.969 87.929l1.031 0.371 1 0.4c21.411 8.389 46.185 13.48 72.082 13.997l0.218 0.003h0.3c32 0 42.2 1.7 123.6 1.7s91.4 0 123.6-1.7c26.747-0.575 52.098-5.845 75.491-15.015l-1.491 0.515-1.4 0.5c40.185-15.874 71.462-46.955 87.231-85.966l0.369-1.034 0.3-1c8.393-21.411 13.484-46.186 13.997-72.084l0.003-0.216v-0.2c0-32.2 1.8-42.3 1.8-123.6s0-91.6-1.8-123.7z" />
<glyph unicode="&#xe903;" glyph-name="right" d="M678.4 460.8l-365.619 379.904c-13.722 13.824-13.722 36.198 0 50.125 13.722 13.824 35.891 13.824 49.613 0l400.896-404.89c13.722-13.875 13.722-36.301 0-50.125l-400.896-404.89c-13.722-13.875-35.891-13.824-49.613 0-13.722 13.773-13.722 36.198 0 50.125l365.619 379.75z" />
<glyph unicode="&#xe904;" glyph-name="left" d="M711.219 80.998c13.722-13.926 13.722-36.301 0-50.125s-35.891-13.875-49.613 0l-400.896 404.89c-13.722 13.824-13.722 36.198 0 50.125l400.896 404.89c13.722 13.824 35.891 13.824 49.613 0 13.722-13.875 13.722-36.301 0-50.125l-365.619-379.853 365.619-379.802z" />
<glyph unicode="&#xe905;" glyph-name="facebook2" d="M608 768h160v192h-160c-123.514 0-224-100.486-224-224v-96h-128v-192h128v-512h192v512h160l32 192h-192v96c0 17.346 14.654 32 32 32z" />
<glyph unicode="&#xe906;" glyph-name="tick" d="M724.139 671.958c-41.259 22.955-93.227 8.021-116.053-33.152l-158.421-285.099-90.667 90.667c-33.323 33.323-87.339 33.323-120.661 0s-33.323-87.339 0-120.661l170.667-170.667c16.128-16.171 37.888-25.045 60.331-25.045 3.925 0 7.893 0.256 11.819 0.853 26.496 3.712 49.749 19.627 62.763 43.051l213.333 384c22.912 41.216 8.064 93.141-33.109 116.053z" />
<glyph unicode="&#xe907;" glyph-name="sound_tyzden" horiz-adv-x="1142" d="M999.034 824.772c-47.235 53.845-104.445 99.656-169.5 131.809-33.314 16.465-90.269-30.585 1.875-82.543 66.125-45.76 126.197-100.132 167.626-168.792 45.314-75.285 71.36-163.414 71.36-257.253 0-93.837-26.046-181.966-71.36-257.248-45.514-75.435-110.629-138.071-188.216-180.77-15.94-8.773-23.824-29.671-16.297-46.237 8.514-18.741 31.023-26.739 48.64-17.137 59.117 32.215 111.983 74.587 155.873 124.615 88.842 100.617 142.719 232.631 142.719 376.777 0 144.148-53.877 276.162-142.719 376.779zM585.516 959.988c-4.512 0-9.128-1.481-13.152-4.772l-358.286-293.145h-173.939c-22.169 0-40.14-17.971-40.14-40.138v-347.878c0-22.168 17.972-40.138 40.14-40.138h173.939l358.286-293.145c4.022-3.291 8.64-4.772 13.152-4.772 10.821 0 21.039 8.511 21.039 20.974v390.535c41.478 14.746 71.362 53.949 71.362 100.483 0 46.54-29.884 85.739-71.362 100.486v390.535c0 12.463-10.22 20.974-21.039 20.974zM549.6 863.001v-354.723l37.878-13.466c20.028-7.119 33.485-25.934 33.485-46.819 0-20.883-13.456-39.7-33.485-46.819l-37.878-13.464v-354.723l-315.19 257.884h-177.455v314.245h177.455l315.19 257.884zM856.315 447.993c0 113.828-66.996 212.241-163.698 257.951-15.96 7.543-35.059 1.763-44.237-13.318l-1.359-2.236c-11.027-18.124-4.051-39.712 15.14-48.756 72.521-34.178 122.795-108.222 122.795-193.642 0-85.016-49.806-158.766-121.78-193.156-18.924-9.038-26.907-31.546-16.017-49.467l1.221-2.006c9.177-15.081 28.277-20.863 44.237-13.318 96.702 45.71 163.698 144.121 163.698 257.946zM999.034 447.993c0 164.194-92.51 306.804-228.228 378.8-17.134 9.091-38.36 3.878-48.454-12.689v0c-10.764-17.676-4.331-40.631 13.994-50.247 113.675-59.637 191.329-178.89 191.329-315.865 0-136.969-77.654-256.22-191.329-315.86-18.382-9.645-24.798-32.714-13.895-50.41 10.051-16.316 31.716-21.368 48.637-12.376 135.56 72.045 227.946 214.569 227.946 378.646zM829.534 956.58c-33.314 16.465-97.698-38.014 1.875-82.543zM248.957 254.918h-56.955v386.303h56.955v-386.303z" />
<glyph unicode="&#xe908;" glyph-name="magazine" d="M322.816 556.032c0-14.138 11.462-25.6 25.6-25.6h304.384c14.138 0 25.6 11.462 25.6 25.6s-11.462 25.6-25.6 25.6h-304.384c-14.138 0-25.6-11.462-25.6-25.6zM348.416 644.096h142.336c14.138 0 25.6 11.462 25.6 25.6s-11.462 25.6-25.6 25.6h-142.336c-14.138 0-25.6-11.462-25.6-25.6s11.462-25.6 25.6-25.6zM652.8 467.968h-304.384c-14.138 0-25.6-11.462-25.6-25.6s11.462-25.6 25.6-25.6h304.384c14.138 0 25.6 11.462 25.6 25.6s-11.462 25.6-25.6 25.6zM652.8 354.304h-304.384c-14.138 0-25.6-11.462-25.6-25.6s11.462-25.6 25.6-25.6h304.384c14.138 0 25.6 11.462 25.6 25.6s-11.462 25.6-25.6 25.6zM652.8 240.384h-304.384c-14.138 0-25.6-11.462-25.6-25.6s11.462-25.6 25.6-25.6h304.384c14.138 0 25.6 11.462 25.6 25.6s-11.462 25.6-25.6 25.6zM606.464 894.72h-427.264v-876.288h640v662.016zM621.568 695.552v110.848l111.104-111.104zM769.28 644.352v-574.464h-537.6v773.376h338.432v-199.168z" />
<glyph unicode="&#xe909;" glyph-name="video" d="M512-64c-282.77 0-512 229.23-512 512s229.23 512 512 512c282.77 0 512-229.23 512-512-0.331-282.637-229.364-511.669-511.969-512zM512 882.336c-239.877 0-434.336-194.459-434.336-434.336s194.459-434.336 434.336-434.336c239.877 0 434.336 194.459 434.336 434.336-0.221 239.789-194.548 434.115-434.315 434.336zM373.758 187.243v511.223l423.851-254.35-423.851-256.874zM334.926 118.122v648.883l538.794-322.694zM412.59 629.734v-373.564l310.656 187.947z" />
<glyph unicode="&#xe90a;" glyph-name="close" d="M906.752 782.848l-45.568 45.568-349.184-348.416-349.184 348.416-45.568-45.568 348.928-348.672-348.928-348.16 45.568-45.824 349.184 348.416 349.184-348.416 45.568 45.824-348.928 348.16 348.928 348.672z" />
<glyph unicode="&#xe90b;" glyph-name="photo" horiz-adv-x="1237" d="M966.038 399.698c0-149.388-121.103-270.491-270.491-270.491s-270.491 121.103-270.491 270.491c0 149.388 121.103 270.491 270.491 270.491s270.491-121.103 270.491-270.491zM695.547 90.566c-170.729 0-309.132 138.403-309.132 309.132s138.403 309.132 309.132 309.132c170.729 0 309.132-138.403 309.132-309.132s-138.403-309.132-309.132-309.132zM695.547 631.547c-128.047 0-231.849-103.802-231.849-231.849s103.802-231.849 231.849-231.849c128.047 0 231.849 103.802 231.849 231.849s-103.802 231.849-231.849 231.849zM1101.283-64h-966.038c-74.694 0-135.245 60.551-135.245 135.245v579.623c0 74.694 60.551 135.245 135.245 135.245h251.17l112.060 143.553c14.265 18.52 36.447 30.335 61.388 30.335 0.154 0 0.308 0 0.462-0.001h270.467c25.197 0 47.577-12.058 61.686-30.719l112.201-143.168h96.604c74.694 0 135.245-60.551 135.245-135.245v-579.623c0-74.694-60.551-135.245-135.245-135.245zM135.245 708.83c-32.012 0-57.962-25.951-57.962-57.962v-579.623c0-32.012 25.951-57.962 57.962-57.962h966.038c32.012 0 57.962 25.951 57.962 57.962v579.623c0 32.012-25.951 57.962-57.962 57.962h-135.245l-135.245 173.887h-270.491l-135.245-173.887z" />
<glyph unicode="&#xe90c;" glyph-name="search" d="M725.504 284.672l7.424 8.704c53.334 63.21 85.749 145.583 85.749 235.527 0 202.322-164.014 366.336-366.336 366.336s-366.336-164.014-366.336-366.336c0-202.322 164.014-366.336 366.336-366.336 78.709 0 151.62 24.822 211.333 67.066l7.814 5.631 232.448-241.664 52.736 51.2zM452.864 236.032c-161.603 0-292.608 131.005-292.608 292.608s131.005 292.608 292.608 292.608c161.603 0 292.608-131.005 292.608-292.608-0.146-161.545-131.064-292.462-292.594-292.608z" />
<glyph unicode="&#xe90d;" glyph-name="burger" d="M123.648 648.192h790.528c18.239 0 33.024 14.785 33.024 33.024s-14.785 33.024-33.024 33.024h-790.528c-18.239 0-33.024-14.785-33.024-33.024s14.785-33.024 33.024-33.024zM123.648 411.392h790.528c18.239 0 33.024 14.785 33.024 33.024s-14.785 33.024-33.024 33.024h-790.528c-18.239 0-33.024-14.785-33.024-33.024s14.785-33.024 33.024-33.024zM123.648 169.728h790.528c18.239 0 33.024 14.785 33.024 33.024s-14.785 33.024-33.024 33.024h-790.528c-18.239 0-33.024-14.785-33.024-33.024s14.785-33.024 33.024-33.024z" />
<glyph unicode="&#xe90e;" glyph-name="mail" d="M272 592v-266.667l133.333 133.333zM528 362.667c-5.333-5.333-10.667-5.333-16-5.333s-10.667 0-16 5.333l-64 64-149.333-149.333h448l-144 149.333-58.667-64zM714.667 613.333h-405.333l202.667-202.667zM752 325.333v266.667l-133.333-133.333zM512 960c-282.667 0-512-229.333-512-512s229.333-512 512-512 512 229.333 512 512-229.333 512-512 512zM794.667 261.333c0-10.667-10.667-21.333-21.333-21.333h-522.667c-10.667 0-21.333 10.667-21.333 21.333v373.333c0 10.667 10.667 21.333 21.333 21.333h522.667c10.667 0 21.333-10.667 21.333-21.333v-373.333z" />
<glyph unicode="&#xe90f;" glyph-name="facebook" d="M512 939.52c-271.462 0-491.52-220.058-491.52-491.52s220.058-491.52 491.52-491.52 491.52 220.058 491.52 491.52-220.058 491.52-491.52 491.52zM628.429 599.859h-73.882c-8.755 0-18.483-11.52-18.483-26.829v-53.35h92.416l-13.978-76.083h-78.438v-228.403h-87.194v228.403h-79.104v76.083h79.104v44.749c0 64.205 44.544 116.378 105.677 116.378h73.882v-80.947z" />
<glyph unicode="&#xe910;" glyph-name="twitter" d="M512 939.52c-271.462 0-491.52-220.058-491.52-491.52s220.058-491.52 491.52-491.52 491.52 220.058 491.52 491.52-220.058 491.52-491.52 491.52zM711.936 536.883c0.205-4.198 0.256-8.397 0.256-12.493 0-128-97.331-275.507-275.405-275.507-54.682 0-105.574 15.974-148.378 43.52 7.526-0.922 15.258-1.28 23.091-1.28 45.363 0 87.091 15.411 120.218 41.421-42.342 0.819-78.080 28.774-90.419 67.174 5.888-1.075 11.93-1.69 18.176-1.69 8.806 0 17.408 1.178 25.498 3.379-44.288 8.909-77.67 48.026-77.67 94.925v1.178c13.056-7.219 28.006-11.622 43.878-12.134-26.010 17.408-43.059 47.002-43.059 80.64 0 17.715 4.762 34.406 13.107 48.691 47.77-58.573 119.040-97.075 199.526-101.222-1.69 7.117-2.509 14.49-2.509 22.118 0 53.402 43.315 96.819 96.819 96.819 27.802 0 52.992-11.776 70.656-30.618 22.067 4.403 42.752 12.39 61.44 23.501-7.219-22.579-22.528-41.574-42.547-53.606 19.61 2.406 38.246 7.578 55.603 15.309-12.954-19.405-29.389-36.506-48.282-50.125z" />
<glyph unicode="&#xe911;" glyph-name="chat" d="M512 960c-281.6 0-512-230.4-512-512s230.4-512 512-512 512 230.4 512 512c0 281.6-230.4 512-512 512zM764.8 374.4c0-32-35.2-70.4-70.4-70.4s-176 0-176 0l-140.8-140.8v140.8h-35.2c0 0-70.4 0-70.4 70.4v211.2c0 35.2 35.2 70.4 70.4 70.4h352c35.2 0 70.4-35.2 70.4-70.4v-211.2z" />
<glyph unicode="&#xe912;" glyph-name="print" d="M358.4 316.8h307.2v-89.6h-307.2v89.6zM752 467.2c-6.4 0-9.6-3.2-16-6.4s-6.4-9.6-6.4-16c0-6.4 3.2-9.6 6.4-16s9.6-6.4 16-6.4 9.6 3.2 16 6.4 6.4 9.6 6.4 16c0 6.4-3.2 9.6-6.4 16s-9.6 6.4-16 6.4zM358.4 448h307.2v220.8h-307.2v-220.8zM416 636.8h198.4v-35.2h-198.4v35.2zM416 582.4h198.4v-38.4h-198.4v38.4zM416 524.8h198.4v-35.2h-198.4v35.2zM512 960c-281.6 0-512-230.4-512-512s230.4-512 512-512c281.6 0 512 230.4 512 512s-230.4 512-512 512zM793.6 275.2c-3.2-3.2-3.2-3.2-6.4-3.2h-76.8v-54.4c0-9.6-3.2-16-9.6-22.4s-12.8-9.6-22.4-9.6h-332.8c-9.6 0-16 3.2-22.4 9.6s-9.6 12.8-9.6 22.4v54.4h-76.8c-3.2 0-6.4 0-6.4 3.2-3.2 3.2-3.2 3.2-3.2 6.4v198.4c0 6.4 6.4 9.6 12.8 9.6 12.8 0 35.2 0 54.4 0h22.4v188.8c0 9.6 3.2 16 9.6 22.4s12.8 9.6 22.4 9.6h326.4c9.6 0 35.2 0 35.2-35.2v-188.8h22.4c19.2 0 44.8 0 57.6 0 6.4 0 9.6-3.2 9.6-12.8v-195.2c-3.2 0-3.2 0-6.4-3.2z" />
<glyph unicode="&#xe913;" glyph-name="linkedin" d="M512 952.32c-271.462 0-491.52-220.058-491.52-491.52s220.058-491.52 491.52-491.52 491.52 220.058 491.52 491.52-220.058 491.52-491.52 491.52zM391.68 257.075h-99.533v320.307h99.533v-320.307zM341.299 616.704c-31.437 0-51.763 22.272-51.763 49.818 0 28.109 20.941 49.715 53.043 49.715s51.763-21.606 52.378-49.715c0-27.546-20.275-49.818-53.658-49.818zM755.2 257.075h-99.533v177.51c0 41.318-14.438 69.376-50.432 69.376-27.494 0-43.827-18.995-51.046-37.274-2.662-6.502-3.328-15.718-3.328-24.883v-184.678h-99.584v218.112c0 39.987-1.28 73.421-2.611 102.195h86.477l4.557-44.493h1.997c13.107 20.89 45.21 51.712 98.918 51.712 65.485 0 114.586-43.878 114.586-138.189v-189.389z" />
<glyph unicode="&#xe914;" glyph-name="sound_tyzden2" horiz-adv-x="1152" d="M889.2 596.2c-20.56 16.688-50.82 13.75-67.5-6.812-16.812-20.5-13.812-50.74 6.75-67.56 22.55-18.628 35.55-45.428 35.55-73.828 0-28.38-13-55.24-35.62-73.74-20.56-16.812-23.56-47.060-6.75-67.56 9.438-11.624 23.24-17.624 37.12-17.624 10.688 0 21.5 3.562 30.38 10.812 45.070 36.912 70.87 90.712 70.87 148.112s-25.8 111.2-70.8 148.2zM1010.2 744c-20.44 16.688-50.68 13.812-67.56-6.688-16.812-20.5-13.812-50.74 6.688-67.56 67.872-55.552 106.672-136.352 106.672-221.752s-38.88-166.18-106.62-221.8c-20.5-16.812-23.5-47.060-6.688-67.56 9.5-11.562 23.24-17.562 37.12-17.562 10.75 0 21.5 3.562 30.44 10.874 90.148 73.848 141.748 181.848 141.748 296.048s-51.6 222.2-141.8 296zM666.4 890.32c-23 10.374-50.020 6.232-68.86-10.518l-269.94-239.802h-167.6c-53.020 0-96-42.98-96-94.2v-190.2c0-53.020 42.98-94.2 96-94.2h167.68l269.8-239.8c11.92-16 27.12-21.6 42.52-21.6 8.876 0 17.918 1.863 26.32 5.674 23.080 10.326 37.68 33.126 37.68 58.326v768c0 25.18-14.6 49.8-37.6 58.32z" />
<glyph unicode="&#xeabe;" glyph-name="apple" d="M791.498 415.908c-1.294 129.682 105.758 191.876 110.542 194.966-60.152 88.020-153.85 100.078-187.242 101.472-79.742 8.074-155.596-46.948-196.066-46.948-40.368 0-102.818 45.754-168.952 44.552-86.916-1.292-167.058-50.538-211.812-128.38-90.304-156.698-23.126-388.84 64.89-515.926 43.008-62.204 94.292-132.076 161.626-129.58 64.842 2.588 89.362 41.958 167.756 41.958s100.428-41.958 169.050-40.67c69.774 1.296 113.982 63.398 156.692 125.796 49.39 72.168 69.726 142.038 70.924 145.626-1.548 0.706-136.060 52.236-137.408 207.134zM662.562 796.478c35.738 43.358 59.86 103.512 53.28 163.522-51.478-2.096-113.878-34.29-150.81-77.55-33.142-38.376-62.148-99.626-54.374-158.436 57.466-4.484 116.128 29.204 151.904 72.464z" />
<glyph unicode="&#xeac0;" glyph-name="android" d="M896 576c-35.2 0-64-28.8-64-64v-256c0-35.2 28.8-64 64-64s64 28.8 64 64v256c0 35.2-28.8 64-64 64zM128 576c-35.2 0-64-28.8-64-64v-256c0-35.2 28.8-64 64-64s64 28.8 64 64v256c0 35.2-28.802 64-64 64zM224 224c0-53.020 42.98-96 96-96v0-128c0-35.2 28.8-64 64-64s64 28.8 64 64v128h128v-128c0-35.2 28.8-64 64-64s64 28.8 64 64v128c53.020 0 96 42.98 96 96v352h-576v-352zM798.216 639.998c-9.716 87.884-59.004 163.792-129.62 209.646l32.024 64.046c7.904 15.806 1.496 35.028-14.31 42.932s-35.030 1.496-42.932-14.312l-32.142-64.286-8.35 3.316c-28.568 9.502-59.122 14.66-90.886 14.66-31.762 0-62.316-5.158-90.888-14.656l-8.348-3.316-32.142 64.282c-7.904 15.808-27.128 22.212-42.932 14.312-15.808-7.904-22.214-27.126-14.312-42.932l32.022-64.046c-70.616-45.852-119.904-121.762-129.622-209.644v-32h574.222v31.998h-1.784zM416 704c-17.674 0-32 14.328-32 32 0 17.648 14.288 31.958 31.93 31.996 0.032 0 0.062-0.002 0.094-0.002 0.018 0 0.036 0.002 0.052 0.002 17.638-0.042 31.924-14.35 31.924-31.996 0-17.672-14.326-32-32-32zM608 704c-17.674 0-32 14.328-32 32 0 17.646 14.286 31.954 31.924 31.996 0.016 0 0.034-0.002 0.050-0.002 0.032 0 0.064 0.002 0.096 0.002 17.64-0.038 31.93-14.348 31.93-31.996 0-17.672-14.326-32-32-32z" />
</font>
</defs>
</svg>
